#TITLE:LIPSTICK;
#SUBTITLE:Expi3nze;
#ARTIST:Orange Caramel;
#TITLETRANSLIT:;
#SUBTITLETRANSLIT:;
#ARTISTTRANSLIT:;
#CREDIT:;
#BANNER:bn.png;
#BACKGROUND:bg.png;
#LYRICSPATH:;
#CDTITLE:cdtitle.png;
#MUSIC:LIPSTICK.mp3;
#OFFSET:-0.060;
#SAMPLESTART:100.000;
#SAMPLELENGTH:12.000;
#SELECTABLE:YES;
#BPMS:0.000=126.000,17.000=63.000,17.167=252.000,17.500=63.000,17.667=252.000,18.000=63.000,18.167=252.000,18.500=63.000,18.667=252.000,19.000=126.000,113.000=63.000,113.167=252.000,113.500=63.000,113.667=252.000,114.000=63.000,114.167=252.000,114.500=63.000,114.667=252.000,115.000=63.000,115.167=252.000,115.500=126.000,133.000=63.000,133.333=252.000,134.000=126.000,137.500=63.000,137.667=252.000,138.000=63.000,138.167=252.000,138.500=63.000,138.667=252.000,139.000=63.000,139.167=252.000,139.500=63.000,139.667=252.000,140.000=63.000,140.167=252.000,140.500=63.000,140.667=252.000,141.000=63.000,141.333=252.000,142.000=126.000,149.000=63.000,149.333=252.000,150.000=126.000,153.500=63.000,153.667=252.000,154.000=63.000,154.167=252.000,154.500=63.000,154.667=252.000,155.000=63.000,155.167=252.000,155.500=63.000,155.667=252.000,156.000=63.000,156.167=252.000,156.500=63.000,156.667=252.000,157.000=63.000,157.333=252.000,158.000=126.000,165.000=63.000,173.000=126.000,186.000=252.000,190.000=126.000,203.000=63.000,203.167=252.000,203.500=63.000,203.667=252.000,204.000=63.000,204.167=252.000,204.500=63.000,204.667=252.000,205.000=63.000,205.167=252.000,205.500=126.000,223.000=63.000,223.333=252.000,224.000=126.000,227.500=63.000,227.667=252.000,228.000=63.000,228.167=252.000,228.500=63.000,228.667=252.000,229.000=63.000,229.167=252.000,229.500=63.000,229.667=252.000,230.000=63.000,230.167=252.000,230.500=63.000,230.667=252.000,231.000=63.000,231.333=252.000,232.000=126.000,239.000=63.000,239.333=252.000,240.000=126.000,243.500=63.000,243.667=252.000,244.000=63.000,244.167=252.000,244.500=63.000,244.667=252.000,245.000=63.000,245.167=252.000,245.500=63.000,245.667=252.000,246.000=63.000,246.167=252.000,246.500=63.000,246.667=252.000,247.000=63.000,247.333=252.000,248.000=126.000,267.000=63.000,267.167=252.000,267.500=63.000,267.667=252.000,268.000=63.000,268.167=252.000,268.500=63.000,268.667=252.000,269.000=63.000,269.167=252.000,269.500=126.000,286.750=252.096,287.000=504.192,287.250=1008.380,288.000=1007.620,289.000=1008.380,289.250=504.192,289.500=252.000,290.000=126.000;
#STOPS:;
#BGCHANGES:;
// cache tags:
#FIRSTBEAT:1.000;
#LASTBEAT:288.500;
#SONGFILENAME:songs/as/LIPSTICK (Orange Caramel)/LIPSTICK.sm;
#HASMUSIC:1;
#HASBANNER:1;
#MUSICLENGTH:140.421;
// end cache tags

//---------------dance-single - ----------------
#NOTES:
     dance-single:
     :
     Hard:
     15:
     1.000,1.000,1.000,0.299,0.409,662.000,390.000,42.000,0.000,72.000:
0000
2020
0000
0000
,
3030
0000
0000
0000
1010
0000
0001
0000
1110
0000
0001
0000
0101
0000
0001
0100
,
1001
0000
0010
0000
1010
0000
1010
0000
0111
0000
1010
0000
1010
0000
0100
1000
,
0011
0100
0010
0000
1010
0000
1010
0000
1101
0000
0101
0000
0101
0000
0100
0010
,
1001
0100
0010
0000
1010
0000
1010
0000
1010
0000
1010
0000
1010
0000
1001
1100
,
1001
0000
1010
0000
1010
0000
0101
0000
1101
0000
1001
0000
0011
0000
0100
0010
,
0101
1000
0001
0000
0101
0000
1010
0000
1011
0000
0101
0000
0101
0000
0010
0100
,
1001
0010
1000
0000
1100
0000
1001
0000
0011
0000
1010
0000
1011
0000
0010
1000
,
0101
1000
0100
0000
0101
0000
0100
0000
0111
0000
0001
0000
1011
0000
1000
0100
,
1011
0100
0010
0000
1010
0000
1000
0000
0010
0000
1000
0000
1000
0000
0010
1000
,
0010
0000
1010
0000
1010
0000
0010
0000
1000
0000
0010
0000
0001
0010
0100
1000
,
0011
0000
1010
0000
1010
0000
0010
0000
1000
0000
0010
0000
0010
0001
0100
0010
,
1001
1100
1001
1000
0011
1000
0011
1000
,
0011
0000
1001
0000
1100
0000
1000
0000
0010
0001
0010
0001
1100
0000
0001
0000
,
1100
1100
1100
0001
1100
0001
1100
0100
,
0001
0100
0101
0001
0100
0001
0101
0001
,
1100
0000
1100
0000
1100
0000
0001
0000
1000
0000
1001
0000
0011
0000
1001
0100
,
0011
1000
0011
0000
1011
0000
1000
0000
0111
0000
1000
0000
0011
0000
1000
0000
,
1010
0000
1010
0000
0101
0000
0100
0000
0011
0000
1000
0000
0011
0000
1000
0100
,
1001
0010
0001
0000
1100
0000
0001
0000
1100
0000
0001
0000
1100
0000
0001
0100
,
0011
1000
0110
0000
1100
0000
0001
0000
0101
0000
0100
0000
0101
0000
0001
0000
,
1100
0000
1001
0000
0101
0000
0100
0000
0101
0000
0001
0000
1100
0000
0010
1000
,
0101
1000
0101
0000
0101
0000
0001
0000
1100
0000
0001
0000
1100
0000
0001
0010
,
0101
1000
0010
0000
0101
0000
0001
0000
1100
0000
0001
0000
1100
0000
0010
0100
,
1001
0010
0101
0000
0101
0000
0001
0000
0010
0101
1010
0100
1001
0011
1001
0000
,
1010
0101
0010
0001
1100
0000
1001
0000
1001
0000
1010
0000
1010
0000
0001
0010
,
1001
0100
0010
0000
0101
0000
0101
0000
1010
0000
0011
0000
1010
0000
1000
0010
,
1001
0100
0010
0000
1001
0000
0011
0000
1001
0000
0011
0100
1001
0000
1010
0000
,
1011
0000
1010
0000
1001
0000
1001
0000
1001
0000
1001
0000
1001
0000
1001
0011
,
1001
0000
1010
0000
1110
0000
0101
0000
0101
0000
1010
0000
1010
0000
0001
0100
,
1010
0100
0001
0000
1010
0000
1010
0000
0111
0000
1010
0000
1010
0000
0010
1000
,
0110
1000
0010
0000
1100
0000
1100
0000
0011
0000
1100
0000
1100
0000
0001
0010
,
0101
1000
0010
0000
1010
0000
1010
0000
0010
0000
1000
0000
0010
0000
1000
1100
,
1010
1100
0101
1010
1212
0000
0000
0000
1313
0000
0101
0000
0101
0000
0010
0100
,
1001
0010
0100
0000
0010
0000
1010
0000
1010
0000
1010
0000
1010
0000
1010
0000
,
1010
0000
1010
0000
2020
0000
0000
0000
3131
0000
0101
0000
1100
0000
0001
0100
,
1001
0010
0100
0000
0101
0000
0101
0000
1100
0000
1001
0000
1001
0000
0101
0000
,
1101
0000
0101
0000
2102
0000
0000
0000
3113
0000
0110
0000
2210
0000
0001
0001
,
3310
0101
1010
1010
1010
1010
1010
1010
,
1010
0000
1010
0000
2020
0000
0000
0000
3131
0000
1010
0000
1010
0000
0010
0001
,
1100
0010
0001
0000
1100
0000
0001
0000
0111
0000
0100
0000
0111
0000
0010
0000
,
0111
1000
0010
0000
0200
0000
0010
0010
0002
0000
0000
0020
0300
0233
0000
1000
,
1302
0010
0010
0100
2013
0100
0001
0020
0001
0231
0010
0301
0100
0100
3002
0200
,
0023
0302
0230
0023
1331
0000
1000
0100
1001
0000
0001
0000
1001
0000
1000
0000
,
0011
0011
0011
1000
0011
1000
0011
1000
,
1010
0000
0001
0000
1010
0000
0001
0000
1010
0000
0001
0000
1010
0000
0010
0100
,
1010
1010
1012
0000
2023
0000
0000
0000
,
3232
0000
0000
0000
1313
1010
1110
1001
,
1001
0000
1010
0000
1010
0000
0001
0010
1001
0100
0010
0000
0101
0000
0101
0000
,
1010
0000
0011
0000
1010
0000
1000
0010
1001
0100
0010
0000
1001
0000
0011
0000
,
1001
0000
0011
0100
1001
0000
1010
0000
1011
0000
1010
0000
1001
0000
1001
0000
,
1001
0000
1001
0000
1001
0000
1001
0011
1001
0000
1010
0000
1110
0000
0101
0000
,
0101
0000
1010
0000
1010
0000
0001
0100
1010
0100
0001
0000
1010
0000
1010
0000
,
0111
0000
1010
0000
1010
0000
0010
1000
0110
1000
0010
0000
1100
0000
1100
0000
,
0011
0000
1100
0000
1100
0000
0001
0010
0101
1000
0010
0000
1010
0000
1010
0000
,
0010
0000
1000
0000
0010
0000
1000
1100
1010
1100
0101
1010
1212
0000
0000
0000
,
1313
0000
0101
0000
0101
0000
0010
0100
1001
0010
0100
0000
0010
0000
1010
0000
,
1010
1010
1010
1010
1010
1010
2020
0000
,
3131
0000
0101
0000
1100
0000
0001
0100
1001
0010
0100
0000
0101
0000
0101
0000
,
1100
1001
1001
0101
1101
0101
2102
0000
,
3113
0000
0110
0000
2210
0000
0001
0001
3310
0000
0101
0000
1010
0000
1010
0000
,
1010
1010
1010
1010
1010
1010
2020
0000
,
3131
0000
1010
0000
1010
0000
0010
0001
1100
0010
0001
0000
1100
0000
0001
0000
,
0111
0000
0100
0000
0111
0000
0010
0000
0111
1000
0010
0000
1100
0000
0001
0000
,
1110
0000
0001
0000
0101
0000
0001
0100
1001
0000
0010
0000
1010
0000
1010
0000
,
0111
0000
1010
0000
1010
0000
0100
1000
0011
0100
0010
0000
1010
0000
1010
0000
,
1101
0000
0101
0000
0101
0000
0100
0010
1001
0100
0010
0000
1010
0000
1010
0000
,
1010
0000
1010
0000
1010
0000
1001
1100
1001
0000
1010
0000
1010
0000
0101
0000
,
1101
0000
1001
0000
0011
0000
0100
0010
0101
1000
0001
0000
0101
0000
1010
0000
,
1011
0000
0101
0000
0101
0000
0010
0100
1001
0010
1000
0000
1100
0000
1001
0000
,
0011
0000
1010
0000
1011
0000
0010
1000
0101
1000
0100
0000
0101
0000
0100
0000
,
0111
0000
0001
0000
1011
0000
1000
0100
1011
0100
0010
0000
0000
0000
0000
0020
,
0000
0030
0000
0000
0000
0000
0000
0000
,
0000
0000
0000
0000
,
0000
0000
0000
0000
,
0000
0000
0000
0000
,
0000
0000
0000
0000
,
0000
0000
0000
0000
,
0000
0000
0000
0000
,
0000
0000
0000
0000
,
0000
0000
0000
0000
,
0000
0000
0000
0000
,
0000
0000
0000
0000
,
0000
0000
0000
0000
,
0000
0000
0000
0000
,
0000
0000
0000
0000
,
0000
0000
0000
0000
,
0000
0000
0000
0000
,
0000
0000
0000
0000
,
0000
0000
0000
0000
,
0000
0000
0000
0000
,
0000
0000
0000
0000
,
0000
0000
0000
0000
,
0000
0000
0000
0000
,
0000
0000
0000
0000
;
